kneipennacht-unna
» » André Torrent - Vous Parle Du Club Dial

André Torrent - Vous Parle Du Club Dial download

André Torrent - Vous Parle Du Club Dial download
Performer: André Torrent
Title: Vous Parle Du Club Dial
Genre: Rock / Sound files / Pop / Classical
Rating: 4.5
Votes: 801
Formats:
FLAC size: 1008 mb
MP3 size: 1947 mb

Tracklist

André Torrent Vous Parle Du Club Dial
André Torrent Vous Parle Du Club Dial (Suite)

Versions

CategoryArtistTitle (Format)LabelCategoryCountryYear
900 038 0441André Torrent Vous Parle Du Club Dial ‎(Flexi, 7", Promo)Club Dial900 038 0441FranceUnknown
1733André Torrent André Torrent Et Virginie Vous Parlent Du Club Dial ‎(7", Promo, Fle)Club Dial1733FranceUnknown
900 038 0441André Torrent Vous Parle Du Club Dial ‎(Flexi, 7", Promo)Club Dial900 038 0441FranceUnknown
900 038 0441André Torrent Vous Parle Du Club Dial ‎(Flexi, 7", Promo, red)Club Dial900 038 0441FranceUnknown
900 038 0441André Torrent Vous Parle Du Club Dial ‎(Flexi, 7", S/Sided, Promo, W/Lbl, Whi)Club Dial900 038 0441FranceUnknown

Album

Latest version of the music album André Torrent - Vous Parlent Du Club Dial Download Free. MP3, FLAC, WMA audio format. ZIP and RAR archives. André Torrent Vous Parlent Du Club Dial. André Torrent Vous Parlent Du Club Dial Suite. Listen to online André Torrent - Vous Parlent Du Club Dial, or download mp3 tracks: download here mp3 release album free and without registration. On this page you can not listen to mp3 music free or download album or mp3 track to your PC, phone or tablet. Buy André Torrent - Vous Parlent Du Club Dial from authorized sellers. Genre of this release: Rock music Non-Music music Pop music Classical music. Released at: This album was released on the label Club Dial catalog number 900 038 0441. Format of the release is. Flexi-disc . André Torrent's Album Vous Parle Du Club Dial. Listen to all tracks of Vous Parle Du Club Dial for free. André Torrent. Album Tracks. About & Images. Similar Releases. Discover Releases. Tracks In This Album. André Torrent Vous Parle Du Club Dial - Vous Parle Du Club Dial - André Torrent. André Torrent Vous Parle Du Club Dial Suite - Vous Parle Du Club Dial - André Torrent. Similar Artists. TORRENT download. download 28 Files download 6 Original. Show all. In collections. Community Video. Uploaded by Mouvement républicain du Québec on June 20, 2017. SIMILAR ITEMS based on metadata. Формируйте собственную коллекция коллекцию записей Jean-Loup Lafont Et Françoise Rivière. Скачать André Torrent - Vous Parlent Du Club Dial mp3 release album free and without registration. On this page you can listen to mp3 music free or download album or mp3 track to your PC, phone or in album Andre Rieu - Romantic Moments 1998. Andre Rieu - Love Theme From Romeo & Juliet - Nino Rota. Andre Rieu - Lied An Den Mond - Antonin Dvorak. Singer: André Torrent. Title: Vous Parlent Du Club Dial. Category: Rock, Non Music, Pop, Classical. Info: Label: Club Dial 900 038 0441 Type: Flexi-disc, 7, 33 RPM, Promo Country: France Date of released: Category: Rock, Non-Music, Pop, Classical Style: Rating: 4. Votes 365. Format MP3 AHX DMF XM AUD AAC MMF VOC FLAC APE. Download links. André Torrent - Vous Parlent Du Club Dial MP3 album ZIP archive. André Torrent, Writer: Torrentiellement vôtre. André Torrent was born on July 27, 1945 in Uccle, Belgium as André Tollebeeck. He is a writer and actor, known for Torrentiellement vôtre 1981, L'esprit de famille 1979 and Hit-Parade 1975. A new version of is available, to keep everything running smoothly, please reload the site. André Gide. Grands auteurs du XXème siècle, Vol. 4: André Gide vous parle Discours, entretiens et propos. Get album. Do you have the artwork for this album Add artwork

Performer

PERFORMER Michael Feinstein & Andre Previn INDEX 01 00:00:00FILE 10 - Quiet WAVE TRACK 10 AUDIO TITLE Quiet Music PERFORMER Michael Feinstein & Andre Previn INDEX 01 00:00:00FILE 11 - You're Gonna Hear from WAVE TRACK 11 AUDIO TITLE You're Gonna Hear from Me PERFORMER Michael Feinstein & Andre Previn INDEX 01 00:00:00FILE. 12 - WAVE TRACK 12 AUDIO TITLE Goodbye PERFORMER Michael Feinstein & Andre Previn INDEX 01 00:00:00. Открыть топик Скачать. Похожие темы. Listen to Le torrent from André Verchuren's Géant de l'Accordéon for free, and see the artwork, lyrics and similar artists. André Verchuren is a french accordion player born on 28th December 1920 at Neuilly-sous-Clermont in the county of Oise in France. His family is from Belgium. He started to play at four year read more. André Rieu & His Johann Strauss Orchestra performing in Cortona, the beautiful village in Tuscany. From the special Romantic Paradise recorded in music torrent sites . submitted 1 year ago by allendfrieee. Every single thing gets shutdown so quickly. Public Torrent sites not specialized for any type of content but are well known to have music: ruTracker. There are always general public torrent indexers you can check out. See the Common Post Topics in the sidebar, e. torrent site. site like or alternative to torrentproject. There are also private torrent trackers specialized in that content. Download royalty free music in mp3 for André Marchal for free, and without copyrights from . André Marchal February 6, 1894 Paris August 27, 1980 Saint-Jean-de-Luz was a French organist and organ teacher. He was one of the great initiators of the twentieth-century organ revival in France. Marchal was born blind. Peter Andre Mysterious Girl feat. Bubbler Ranx 14. 911 Don't Make Me Wait 15. Livin' Joy Don't Stop Movin' 16. Stretch 'N' Vern I'm Alive 17. JX There's Nothing I Won't Do 18. BBE Seven Days And One Week. Все права защищены. В наличии сведения о проекте. Доступна цифровая библиотека бесплатного видео, текстов, электронных книг, аудио, ПО. Имеется возможность поиска данных по изучению истории интернет-ресурсов с помощью архива Wayback Machine, ведущегося с 1996 года. Ресурс доступен на английском языке. Имеется доска объявлений. Download Music performer stock vectors at the best vector graphic agency with millions of premium high quality, royalty-free stock vectors, illustrations and cliparts at reasonable prices. Блог пользователя Evgenei1 на DRIVE2. Жанр: Jazz, vocal jazz, R&B, Classic Jazz, Smooth Jazz, Swing, Blues, Blues-rock, Folk, Pop, Rock, Classical Производитель диска: Germany Vereinigte Motor-Verlage, Sony Music Phono Music Audio Zounds Эты 24-каратные золотые CD, характерны исключительной чистотой записи. Это результат использо . André Rieu: все альбомы, включая Happy Days , My Music - My World - The Very Best Of , A Loja Do Mestre André и другие

kneipennacht-unna.de
© All right reserved. 2015-2021
Contacts | Privacy Policy | DMCA
Music albums are provided for reference only